Young Sheldon S01E22

Posted By: Tavaz
1080p (FullHD) / WEBRip IMDb
Young Sheldon S01E22

Young Sheldon S01E22
WEBRip | MKV | 1920x1080 | English | H264 @ 4500 kbps | AAC @ 125 kbps | 20 min 9 s | 664 MiB
Genre: Comedy

The early life of child genius Sheldon Cooper, later seen in The Big Bang Theory.

6a01603a271a44aba561dc5b674738a8.mkv (663.7 MB)



General
Unique ID : 131426902904400281447344675925695803554 (0x62DFE69987691DE8875E806096F630A2)
Complete name : ./6a01603a271a44aba561dc5b674738a8.mkv
Format : Matroska
Format version : Version 4 / Version 2
File size : 664 MiB
Duration : 20 min 9 s
Overall bit rate : 4 605 kb/s
Encoded date : UTC 2018-05-11 04:04:20
Writing application : mkvmerge v23.0.0 ('The Bride Said No') 64-bit
Writing library : libebml v1.3.6 + libmatroska v1.4.9

Video
ID : 1
Format : AVC
Format/Info : Advanced Video Codec
Format profile : High@L4
Format settings : CABAC / 4 Ref Frames
Format settings, CABAC : Yes
Format settings, RefFrames : 4 frames
Format settings, GOP : M=4, N=48
Codec ID : V_MPEG4/ISO/AVC
Duration : 20 min 9 s
Bit rate : 4 500 kb/s
Width : 1 920 pixels
Height : 1 080 pixels
Display aspect ratio : 16:9
Frame rate mode : Constant
Frame rate : 23.976 (24000/1001) FPS
Color space : YUV
Chroma subsampling : 4:2:0
Bit depth : 8 bits
Scan type : Progressive
Bits/(Pixel*Frame) : 0.091
Stream size : 645 MiB (97%)
Writing library : x264 core 152
Encoding settings : cabac=1 / ref=4 / deblock=1:0:0 / analyse=0x3:0x113 / me=hex / subme=8 / psy=1 / psy_rd=1.00:0.00 / mixed_ref=1 / me_range=16 / chroma_me=1 / trellis=2 / 8x8dct=1 / cqm=0 / deadzone=21,11 / fast_pskip=1 / chroma_qp_offset=-2 / threads=34 / lookahead_threads=5 / sliced_threads=0 / nr=0 / decimate=1 / interlaced=0 / bluray_compat=0 / stitchable=1 / constrained_intra=0 / bframes=3 / b_pyramid=2 / b_adapt=1 / b_bias=0 / direct=3 / weightb=1 / open_gop=0 / weightp=2 / keyint=48 / keyint_min=4 / scenecut=0 / intra_refresh=0 / rc_lookahead=48 / rc=2pass / mbtree=1 / bitrate=4500 / ratetol=1.0 / qcomp=0.60 / qpmin=0 / qpmax=69 / qpstep=4 / cplxblur=20.0 / qblur=0.5 / vbv_maxrate=5400 / vbv_bufsize=4500 / nal_hrd=none / filler=0 / ip_ratio=1.40 / aq=1:1.00
Default : Yes
Forced : No

Audio
ID : 2
Format : AAC
Format/Info : Advanced Audio Codec
Format profile : LC
Codec ID : A_AAC-2
Duration : 20 min 9 s
Bit rate : 125 kb/s
Channel(s) : 2 channels
Channel positions : Front: L R
Sampling rate : 48.0 kHz
Frame rate : 46.875 FPS (1024 SPF)
Compression mode : Lossy
Stream size : 18.1 MiB (3%)
Default : Yes
Forced : No





Young Sheldon S01E22


Young Sheldon S01E22


Young Sheldon S01E22


Young Sheldon S01E22


Young Sheldon S01E22

All episodes

SitemapCode:Breaker OVA English Subbed | 개요 드라마| 미국|102분 |1956 감독 어빙 래퍼 출연 미켈 레이 어빙 래퍼 감독 미켈 레이 주연 엘자 카데나스 조연 | Best of Thierry Marx