Young Sheldon S01E22

Posted By: Tavaz
1080p (FullHD) / WEB-DL IMDb
Young Sheldon S01E22

Young Sheldon S01E22
WEB-DL | MKV | 1920x1080 | Italian / English | H264 @ 6609 kbps | AC-3 @ 192 kbps | 19 min 12 s | 1.00 GiB
Genre: Comedy

The early life of child genius Sheldon Cooper, later seen in The Big Bang Theory.

Young.Sheldon.1x22.Gelato.Alla.Vaniglia.Gentiluomini.In.Visita.E.Un.Tavolo.Da.Pranzo.ITA-ENG.1080p.WEBMux.x264-NovaRip.mkv (1.0 GB)



General
Unique ID : 50128467997152539308976334228250012915 (0x25B6644A43E57B58D617054DC815ACF3)
Complete name : ./Young.Sheldon.1x22.Gelato.Alla.Vaniglia.Gentiluomini.In.Visita.E.Un.Tavolo.Da.Pranzo.ITA-ENG.1080p.WEBMux.x264-NovaRip.mkv
Format : Matroska
Format version : Version 2
File size : 1.00 GiB
Duration : 19 min 12 s
Overall bit rate : 7 464 kb/s
Encoded date : UTC 2018-06-24 09:30:29
Writing application : mkvmerge v8.5.2 ('Crosses') 64bit
Writing library : libebml v1.3.3 + libmatroska v1.4.4

Video
ID : 1
Format : AVC
Format/Info : Advanced Video Codec
Format profile : High@L4.1
Format settings : CABAC / 4 Ref Frames
Format settings, CABAC : Yes
Format settings, RefFrames : 4 frames
Codec ID : V_MPEG4/ISO/AVC
Duration : 19 min 12 s
Bit rate : 6 609 kb/s
Width : 1 920 pixels
Height : 1 080 pixels
Display aspect ratio : 16:9
Frame rate mode : Constant
Frame rate : 25.000 FPS
Original frame rate : 23.976 (24000/1001) FPS
Color space : YUV
Chroma subsampling : 4:2:0
Bit depth : 8 bits
Scan type : Progressive
Bits/(Pixel*Frame) : 0.127
Stream size : 946 MiB (92%)
Writing library : x264 core 155 r2893 b00bcaf
Encoding settings : cabac=1 / ref=4 / deblock=1:-2:-2 / analyse=0x3:0x133 / me=umh / subme=7 / psy=1 / psy_rd=1.00:0.00 / mixed_ref=1 / me_range=16 / chroma_me=1 / trellis=2 / 8x8dct=1 / cqm=0 / deadzone=21,11 / fast_pskip=0 / chroma_qp_offset=-2 / threads=6 / lookahead_threads=1 / sliced_threads=0 / nr=0 / decimate=1 / interlaced=0 / bluray_compat=0 / constrained_intra=0 / bframes=5 / b_pyramid=2 / b_adapt=2 / b_bias=0 / direct=3 / weightb=1 / open_gop=0 / weightp=2 / keyint=250 / keyint_min=23 / scenecut=40 / intra_refresh=0 / rc_lookahead=40 / rc=2pass / mbtree=1 / bitrate=6609 / ratetol=1.0 / qcomp=0.60 / qpmin=0 / qpmax=69 / qpstep=4 / cplxblur=20.0 / qblur=0.5 / ip_ratio=1.40 / aq=1:1.00
Language : English
Default : Yes
Forced : Yes

Audio #1
ID : 2
Format : AC-3
Format/Info : Audio Coding 3
Format settings, Endianness : Big
Codec ID : A_AC3
Duration : 19 min 12 s
Bit rate mode : Constant
Bit rate : 192 kb/s
Channel(s) : 2 channels
Channel positions : Front: L R
Sampling rate : 48.0 kHz
Frame rate : 31.250 FPS (1536 SPF)
Bit depth : 16 bits
Compression mode : Lossy
Stream size : 26.4 MiB (3%)
Title : ITA
Language : Italian
Service kind : Complete Main
Default : Yes
Forced : Yes

Audio #2
ID : 3
Format : AC-3
Format/Info : Audio Coding 3
Format settings, Endianness : Big
Codec ID : A_AC3
Duration : 19 min 12 s
Bit rate mode : Constant
Bit rate : 384 kb/s
Channel(s) : 6 channels
Channel positions : Front: L C R, Side: L R, LFE
Sampling rate : 48.0 kHz
Frame rate : 31.250 FPS (1536 SPF)
Bit depth : 16 bits
Compression mode : Lossy
Stream size : 52.8 MiB (5%)
Title : ENG
Language : English
Service kind : Complete Main
Default : No
Forced : No





Young Sheldon S01E22


Young Sheldon S01E22


Young Sheldon S01E22


Young Sheldon S01E22


Young Sheldon S01E22

All episodes

Sitemapمنضدية و ترايبود مصغرة | Mashiro-iro Symphony The Color of Lovers | Laseine2