Code Red Riot - Mask (2018) [Official Digital Download 24/96]

Posted By: SERTiL
Code Red Riot - Mask (2018) [Official Digital Download 24/96]

Code Red Riot - Mask (2018)
FLAC (tracks) 24-bit/96 kHz | Time - 39:36 minutes | 898 MB
Studio Master, Official Digital Download | Artwork: Front Cover

The angst and energy emoting from Code Red Riot’s debut album Mask is just enough to get any metal fan excited about the future of the genre. Crisp vocals, fried guitar riffs, and headache heavy drums are all standard in this album. There’s a formula to be followed in order to contain the monstrous energy of frontman Corky Gainsford, but it’s hard to keep him caged. Mask is packed full of greedy tracks that’s bound to be blasted through a Milwaukee Radio on every jobsite.

Gripping the listener tightly from the opening track, Code Red Riot lives up to what can only be described as an infamous name. Gainsford is the master puppeteer behind the controlled chaos, his carefully constructed work more than eager to knock down walls with authority. It’s impossible not to notice the sheer vivacity throughout each track; the heart pounds quicker, blood begins to boil, and our senses are heightened. Mask hardly gives us room to breathe between the crystal clear sound and boisterous volume. The meticulous way the album coaxes familiarity from songs that are completely original is masterful.

Delving deeper into this collection of songs grants us the opportunity to feel the frustration and angst that drives each and every metal band. Songs like “Slide” and “Ghost” are a callout to naysayers and conformity, a snide reminder that talent cannot be corrupted by “the man”. “Bulletproof” is a prime example of the seldom contained rage and drive that Gainsford has constructed. The heady guitar solos from Tyler “Taz” Azure complement Gainsford’s difficult task of playing almost every single instrument on the album. Each song is also packed full of lyrical talent, coming in brisk and heavy, a stream of consciousness so honest and rude it erases any doubt of Gainsford’s metal prowess.

Mask is the real deal. Though the format is very paint-by-number, there is still enough originality to keep metal fans entertained. What’s most important is the ferocious power Gainsford brings to every track. He’s cut open old wounds and let them bleed crimson red onto the music. Code Red Riot is a band with a chip on its shoulder that reminds us that the heart and soul of metal is still alive and well.



Tracklist:
1. Panic And Pain 03:07
2. Killing The Kings 02:55
3. Living Low 03:34
4. Slide 03:13
5. Chaos Calls 03:19
6. Ghost 03:33
7. Fuel In The Fire 03:07
8. Bulletproof 03:25
9. Black Hole Hero 02:56
10. Handle This 03:43
11. 7 More Days 03:10
12. My Falling Soul 03:34

foobar2000 1.3.7 / Dynamic Range Meter 1.1.1
log date: 2018-07-04 19:19:19

––––––––––––––––––––––––––––––––––––––––
Analyzed: Code Red Riot / Mask
––––––––––––––––––––––––––––––––––––––––

DR Peak RMS Duration Track
––––––––––––––––––––––––––––––––––––––––
DR5 -0.10 dB -6.57 dB 3:07 01-Panic And Pain
DR6 0.00 dB -6.74 dB 2:55 02-Killing The Kings
DR6 0.00 dB -7.26 dB 3:35 03-Living Low
DR5 -0.10 dB -6.66 dB 3:13 04-Slide
DR6 -0.10 dB -7.86 dB 3:20 05-Chaos Calls
DR5 0.00 dB -6.38 dB 3:34 06-Ghost
DR6 0.00 dB -7.10 dB 3:08 07-Fuel In The Fire
DR5 -0.10 dB -6.07 dB 3:25 08-Bulletproof
DR5 -0.10 dB -6.44 dB 2:56 09-Black Hole Hero
DR5 0.00 dB -6.66 dB 3:43 10-Handle This
DR7 -0.10 dB -7.89 dB 3:11 11-7 More Days
DR6 0.00 dB -7.64 dB 3:35 12-My Falling Soul
––––––––––––––––––––––––––––––––––––––––

Number of tracks: 12
Official DR value: DR6

Samplerate: 96000 Hz
Channels: 2
Bits per sample: 24
Bitrate: 3113 kbps
Codec: FLAC
================================================================================


Thanks to the Original customer.
SitemapBells Bells Bells | Baumwollstoff Baumwolle Meterware Uni - verschiedene Farben | A Christmas Tail (2014)